Всегда рабочее зеркало без VPN и Proxy просто перед .vidak.icu напиши любое слово или цифру, Пример http://9c1a.vidak.icu

Лицензия

MVO

1 сезон

1

1 сезон

iTunes

1 сезон

13

1 сезон

Deluxe

pack

Рекомендуем

Repack

30

ВАЖНО

RePack

MK11

RePack

jed

RePack

fifa19

RePack

RDR2

RePack

NEED FOR SPEED™ PAYBACK

Кинопоиск HD

6 сезон

 Острые козырьки 6 сезон

Все сериалы

все сериалы на PB.wtf

RePack

FAR CRY 5
  
Magnet ссылка

Люся / Сезон: 1 / Серии: 1-8 из 8 + Фильм о фильме (Иван И. Твердовский) [2022, Драма, комедия, WEBRip] 7xi.vidak.icu

Люся через торрент 7xi.vidak.icu

Раздают: 4 [ 0 KB/s ]
Размер: 3.26 GB | Добавлен: 13 д. назад | Торрент скачан:34 раза
Смотреть онлайн Люся | Скачать    Ребята, помогите собрать деньги на оплату серверов!!!

13-07-2022 21:54 Люся Скачать торрент  

Люся
Год выпуска: 2022
Страна: Россия
Производство: Good Story Media
Жанр: Драма, комедия
Продолжительность: ~ 00:25:00
Перевод: Не требуется
Субтитры: отсутствуют

Режиссер: Иван И. Твердовский

rating

В ролях: Данила Козловский, Дарья Савельева, Кристина Асмус, Максим Виторган, Ян Цапник, Григорий Верник, Александра Бабаскина, Таисия Битюкова, Иван Макаревич, Дарья Блохина, Анна Слю, Евгений Гомоной, Антон Юрьев, Наталья Павленкова, Алина Ходжеванова, Ирина Вилкова, Алексей Тахаров, Артём Борзовский, Роман Борзовский, Даниил Киселёв, Всеволод Володин, Алексей Личутин, Тамир Сикоев, Анна Шепелева, Сергей Степин, Надежда Подъяпольская, Артем Курганский, Александр Маврин, Александр Десятов

Описание: Сеня, создатель умной колонки «Люся», экспериментирует с алгоритмами, обсуждая с Люсей личные темы, семью, людей вокруг, и старается сделать ее максимально человечной. Люся быстро становится чем-то гораздо большим, чем просто колонка - она оказывается единственной, кому Сеня может доверить свои переживания, проблемы и размышления. Только она знает обо всех проблемах, с которыми столкнулись дочки Сени в школе, и только с ней он делится переживаниями об отношениях с женой. Умная колонка помогает мужчине пережить публичное унижение на глазах всей семьи, найти сына депутата, устроившего это унижение, и справиться с последствиями непоправимого поступка, который совершил Сеня.

Качество: WEBRip
Формат: AVI

Видео: XviD, 704x320, ~ 1620 Кбит/с, 0.287 bit/pixel, 25 Кадр/с
Аудио: 48.0 kHz, AC3 Dolby Digital, 2/0 (L,R) ch, ~ 192 kbps
скриншот  скриншот  скриншот  скриншот  

Общее
Полное имя : D:\lyusya.s01.WEB-DLRip.25Kuzmich\lyusya.s01.e01.WEB-DLRip.25Kuzmich.avi
Формат : AVI
Формат/Информация : Audio Video Interleave
Размер файла : 438 Мбайт
Продолжительность : 33 м. 39 с.
Общий поток : 1 820 Кбит/сек
Программа кодирования : VirtualDubMod 1.5.10.3 | www.virtualdub-fr.org || (build 2550/release)
Библиотека кодирования : VirtualDubMod build 2550/release

Видео
Идентификатор : 0
Формат : MPEG-4 Visual
Профиль формата : Advanced [email protected]
Настройки формата : BVOP1
Параметр BVOP формата : 1
Параметр QPel формата : Нет
Параметр GMC формата : Без точки перехода
Параметр матрицы формата : Default (MPEG)
Идентификатор кодека : XVID
Идентификатор кодека/Подсказка : XviD
Продолжительность : 33 м. 39 с.
Битрейт : 1 618 Кбит/сек
Ширина : 704 пикселя
Высота : 320 пикселей
Соотношение сторон : 2,2:1
Частота кадров : 25,000 кадров/сек
Цветовое пространство : YUV
Субдискретизация насыщенности : 4:2:0
Битовая глубина : 8 бит
Тип развёртки : Прогрессивная
Метод сжатия : С потерями
Бит/(Пиксели*Кадры) : 0.287
Размер потока : 390 Мбайт (89%)
Библиотека кодирования : XviD 73

Аудио
Идентификатор : 1
Формат : AC-3
Формат/Информация : Audio Coding 3
Коммерческое название : Dolby Digital
Идентификатор кодека : 2000
Продолжительность : 33 м. 39 с.
Вид битрейта : Постоянный
Битрейт : 192 Кбит/сек
Каналы : 2 канала
Channel layout : L R
Частота : 48,0 КГц
Частота кадров : 31,250 кадров/сек (1536 SPF)
Метод сжатия : С потерями
Размер потока : 46,2 Мбайт (11%)
Выравнивание : Разделение по промежуткам
Продолжительность промежутка : 40 мс. (1,00 видеокадр)
Время предзагрузки промежутка : 500 мс.
Service kind : Complete Main

Внимание! Раздача ведётся путём добавления новых серий; при каждом добавлении создаётся новый торрент.
Чтобы начать докачку новой серии, пользователям необходимо сделать следующее:
1. Остановить скачивание;
2. Удалить старый торрент у себя из клиента (старые серии удалять не надо);
3. Скачать новый торрент и запустить его у себя в клиенте вместо старого, при этом указать клиенту путь в старую папку куда и должно происходить скачивание новых серий. Ваш клиент при этом должен произвести хеширование (проверку) старой папки и будет докачивать только те серии, которых у вас ещё нет. Старые серии при этом не удаляются, а продолжают раздаваться! Eсли вы уже удалили старые серии, то предотвратить повторную закачку старых серий можно, отжав галочку в соответствующих местах при запуске нового торрента.
7xi.vidak.icu



Скачать Люся через торрент https://i120.fastpic.org/big/2022/0713/e1/1de6bac3b723a03fb50b4143c0b898e1.jpg Скачать, смотреть онлайн Люся бесплантно в хорошем качестве Описание: Сеня, создатель умной колонки «Люся», экспериментирует с алгоритмами, обсуждая с Люсей личные темы, семью, людей вокруг, и ... 7.8 10 12
Торрент: Зарегистрирован [2022-08-05 02:42] · скачан: 34 раз
Статус: √ проверено
Размер: 3.26 GB
Как cкачать? Как скачать Люся через торрент | UTorrent

% Раздел Тема Автор DL S | L
TNT serials [ 7.54 GB ] Люся / Сезон: 1 / Серии: 1-8 из 8 + Фильм о фильме [2022 WEBRip 1080p] bober100 Скачать
4 | 0
TNT serials [ 5.21 GB ] Люся / Сезон: 1 / Серии: 1-8 из 8 + Фильм о фильме [2022 WEBRip 720p] bober100 Скачать
4 | 0
TNT serials [ 2.94 GB ] Люся / Сезон: 1 / Серии: 1-8 из 8 + Фильм о фильме [2022 WEBRip-AVC] bober100 Скачать
1 | 1

28-11-2019 20:33  

Отключить вcю реклaмy на сайте

    Дорогой пользователь! Огромная просьба, поблагодарите релизера, оцените раздачу и оставьте свои комментарий, если Вы скачали Люся через торрент бесплатно!
    Комментировать посты могут только пользователи прошедшие не сложную регистрацию
    Показать сообщения:    

    Люся через торрент
    Скачать бесплатно Люся
    Люся скачать торрент
    Люся смотреть онлайн
    Cкачать фильм Люся бесплатно
    Люся скачать торрент в хорошем качестве
    Люся смотреть онлайн бесплатно в хорошем качестве


    Вы не можете начинать темы
    Вы не можете отвечать на сообщения
    Вы не можете редактировать свои сообщения
    Вы не можете удалять свои сообщения
    Вы не можете голосовать в опросах
    Вы не можете прикреплять файлы к сообщениям
    Вы можете скачивать файлы