Всегда рабочее зеркало без VPN и Proxy просто перед .vidak.icu напиши любое слово или цифру, Пример http://t88w.vidak.icu

Лицензия

MVO

1 сезон

1

1 сезон

iTunes

1 сезон

13

1 сезон

Deluxe

pack

Рекомендуем

Repack

30

ВАЖНО

RePack

MK11

RePack

jed

RePack

fifa19

RePack

RDR2

RePack

NEED FOR SPEED™ PAYBACK

Кинопоиск HD

6 сезон

 Острые козырьки 6 сезон

Все сериалы

все сериалы на PB.wtf

RePack

FAR CRY 5
  
Magnet ссылка

Капкан на судью / Сезон: 1 / Серии: 1-6 из 8 (Ярослав Мочалов) [2022, Детектив, криминал, триллер, WEBRip 1080p] 7xi.vidak.icu

Капкан на судью через торрент 7xi.vidak.icu

Качают: 4 [ 0 KB/s ]
Размер: 13.67 GB | Добавлен: 5 д. назад | Торрент скачан:10 раз
Смотреть онлайн Капкан на судью | Скачать    Ребята, помогите собрать деньги на оплату серверов!!!

14-07-2022 22:45 Капкан на судью Скачать торрент  

Капкан на судью
Год выпуска: 2022
Страна: Россия
Производство: Производство ООО «Гуд Лак Продакшн» по заказу АО «Первый Канал»
Жанр: Детектив, криминал, триллер
Продолжительность: ~ 00:51:00
Перевод: Не требуется
Субтитры: отсутствуют

Режиссер: Ярослав Мочалов



В ролях: Александр Домогаров, Виктория Толстоганова, Александр Горбатов (II), Ангелина Загребина, Анна Завтур, Татьяна Лялина, Сергей Горошко, Владимир Селезнёв (II), Яков Шамшин, Анатолий Петров, Николай Мачульский, Максим Леонидов, Игорь Ботвин, Сергей Ходьков, Арсений Семёнов, Дарья Ленда, Нателла Третьякова, Александра Куликова, Влад Коноплёв, Руслан Барабанов, Анатолий Дубанов, Валерий Дегтярь, Андрей Полищук, Алексей Штукин, Евгений Шумейко, Наталья Парашкина, Денис Пьянов, Ирина Сотикова, Дарья Мокроусова

Описание: Судья Нестеров принципиальный и честный работник судебной системы. За годы службы он запомнился верностью правосудию, уникальным чутьем на настоящих преступников и щепетильным изучением доказательств вины осужденных. В день своего 55-летнего юбилея родные, близкие, коллеги и друзья Нестерова собираются у него дома. Во время торжества загадочным образом исчезает его дочь Аня. В ситуации с пропажей человека наиболее важными являются первые 48 часов. За дело об исчезновении дочери уважаемого судьи берется лучший следователь полиции, майор Забелин. В ходе проведения розыскных мероприятий одна за другой начинают выясняться темные секреты судьи Нестерова. Жизнь несовершеннолетней дочери Нестерова теперь напрямую зависит от того, сможет ли всеми уважаемый судья признаться в своей профессиональной ошибке.

Качество: WEBRip 1080p
Формат: MKV

Видео: MPEG-4 AVC, 1920x1080, ~ 6144 Кбит/с, 0.119 bit/pixel, 25 Кадр/с
Аудио: 48.0 kHz, AC3 Dolby Digital, 2/0 (L,R) ch, ~ 192 kbps
скриншот  скриншот  скриншот  скриншот  скриншот  

Общее
Уникальный идентификатор : 43693957086289043779952111231255500469 (0x20DF2668A2EE4689899FB43580D0D6B5)
Полное имя : D:\Kapkan.na.sudyu.S01.2022.WEB-DL.1080p\Kapkan.na.sudyu.S01.E01.2022.WEB-DL.1080p.mkv
Формат : Matroska
Версия формата : Version 4
Размер файла : 2,25 Гбайт
Продолжительность : 51 м. 15 с.
Режим общего битрейта : Постоянный
Общий поток : 6 296 Кбит/сек
Название фильма : Kapkan.na.sudyu.S01.E01.2022.WEB-DL.1080p
Дата кодирования : UTC 2022-07-14 21:09:47
Программа кодирования : mkvmerge v68.0.0 ('The Curtain') 64-bit
Библиотека кодирования : libebml v1.4.2 + libmatroska v1.6.4
Attachments : poster.jpg

Видео
Идентификатор : 1
Формат : AVC
Формат/Информация : Advanced Video Codec
Профиль формата : [email protected]
Настройки формата : 2 Ref Frames
Параметр CABAC формата : Нет
Параметр RefFrames формата : 2 кадра
Параметр GOP формата : M=1, N=25
Идентификатор кодека : V_MPEG4/ISO/AVC
Продолжительность : 51 м. 15 с.
Вид битрейта : Постоянный
Битрейт : 6 144 Кбит/сек
Ширина : 1 920 пикселей
Высота : 1 080 пикселей
Соотношение сторон : 16:9
Режим частоты кадров : Постоянный
Частота кадров : 25,000 кадров/сек
Цветовое пространство : YUV
Субдискретизация насыщенности : 4:2:0
Битовая глубина : 8 бит
Тип развёртки : Прогрессивная
Бит/(Пиксели*Кадры) : 0.119
Размер потока : 2,18 Гбайт (97%)
Default : Да
Forced : Нет

Аудио
Идентификатор : 2
Формат : AC-3
Формат/Информация : Audio Coding 3
Коммерческое название : Dolby Digital
Идентификатор кодека : A_AC3
Продолжительность : 51 м. 15 с.
Вид битрейта : Постоянный
Битрейт : 192 Кбит/сек
Каналы : 2 канала
Channel layout : L R
Частота : 48,0 КГц
Частота кадров : 31,250 кадров/сек (1536 SPF)
Метод сжатия : С потерями
Размер потока : 70,4 Мбайт (3%)
Service kind : Complete Main
Default : Да
Forced : Нет

Внимание! Раздача ведётся путём добавления новых серий; при каждом добавлении создаётся новый торрент. Чтобы начать докачку новой серии, пользователям необходимо сделать следующее: (1) остановить скачивание, (2) удалить старый торрент у себя из клиента (старые серии удалять не надо), (3) скачать новый торрент и запустить его у себя в клиенте вместо старого, при этом указать клиенту путь в старую папку куда и должно происходить скачивание новых серий.

Ваш клиент при этом должен произвести хеширование (проверку) старой папки (если не производит сам - помогите ему сделать это), и будет докачивать только те серии которых у вас ещё нет. Старые серии при этом не удаляются, а продолжают раздаваться!

Eсли вы уже удалили старые серии, то предотвратить повторную закачку старых серий можно, отжав галочку в соответствующих местах при запуске нового торрента.
7xi.vidak.icu



Скачать Капкан на судью через торрент https://i120.fastpic.org/big/2022/0715/b3/eb4564798b9c56de15cfe2f811113fb3.png Скачать, смотреть онлайн Капкан на судью бесплантно в хорошем качестве Описание: Судья Нестеров принципиальный и честный работник судебной системы. За годы службы он запомнился верностью правосудию, уникальным ... 4.6 10 15
Торрент: Зарегистрирован [2022-08-13 03:05] · скачан: 10 раз
Статус: √ проверено
Размер: 13.67 GB
Как cкачать? Как скачать Капкан на судью через торрент | UTorrent

% Раздел Тема Автор DL S | L
Наши сериалы [ 3.9 GB ] Капкан на судью / Сезон: 1 / Серии: 1-6 из 8 [2022 WEBRip-AVC] bober100 Скачать
4 | 1
Наши сериалы [ 4 GB ] Капкан на судью / Сезон: 1 / Серии: 1-6 из 8 [2022 WEBRip] bober100 Скачать
3 | 0

28-11-2019 20:33  

Отключить вcю реклaмy на сайте

    Дорогой пользователь! Огромная просьба, поблагодарите релизера, оцените раздачу и оставьте свои комментарий, если Вы скачали Капкан на судью через торрент бесплатно!
    Комментировать посты могут только пользователи прошедшие не сложную регистрацию
    Показать сообщения:    

    Капкан на судью через торрент
    Скачать бесплатно Капкан на судью
    Капкан на судью скачать торрент
    Капкан на судью смотреть онлайн
    Cкачать фильм Капкан на судью бесплатно
    Капкан на судью скачать торрент в хорошем качестве
    Капкан на судью смотреть онлайн бесплатно в хорошем качестве


    Вы не можете начинать темы
    Вы не можете отвечать на сообщения
    Вы не можете редактировать свои сообщения
    Вы не можете удалять свои сообщения
    Вы не можете голосовать в опросах
    Вы не можете прикреплять файлы к сообщениям
    Вы можете скачивать файлы