Всегда рабочее зеркало без VPN и Proxy просто перед .vidak.icu напиши любое слово или цифру, Пример http://wbi2.vidak.icu

Лицензия

MVO

1 сезон

1

1 сезон

iTunes

1 сезон

13

1 сезон

Deluxe

pack

Рекомендуем

Repack

30

ВАЖНО

RePack

MK11

RePack

jed

RePack

fifa19

RePack

RDR2

RePack

NEED FOR SPEED™ PAYBACK

Кинопоиск HD

6 сезон

 Острые козырьки 6 сезон

Все сериалы

все сериалы на PB.wtf

RePack

FAR CRY 5
  
Magnet ссылка

Наследие / Сезон: 1 / Серии: 1-7 из 10 (Алексей Голубев) [2022, Фантастика, WEBRip 720p] 7xi.vidak.icu

Наследие через торрент 7xi.vidak.icu

Качают: 1 [ 0 KB/s ]
Размер: 6.25 GB | Добавлен: 1 д. 14 ч. назад | Торрент скачан:2 раза
Смотреть онлайн Наследие | Скачать    Ребята, помогите собрать деньги на оплату серверов!!!

29-07-2022 18:01 Наследие Скачать торрент  

Наследие
Год выпуска: 2022
Страна: Россия
Жанр: Фантастика
Продолжительность: ~ 00:45:00 серия
Перевод: Не требуется
Субтитры: отсутствуют

Режиссер: Алексей Голубев

rating

В ролях: Алексей Серебряков, Егор Бероев, Ольга Макеева, Татьяна Меженцева, Алексей Онежен, Константин Белошапка, Федор Гамалея, Артём Ткаченко, Михаил Евланов, Карина Фадеева, Даниил Эйдлин, Ольга Тимофеева, Артем Манукян, Александр Рапопорт, Константин Крюков, Катерина Ковальчук, Евгений Шварц, Святослав Королев, Анар Халилов, Никита Пресняков, Владислав Семилетков, Рената Пиотровски, Галина Панова, Николай Овсянников , Полина Крикунова, Давид Ниамеди, Вероника Устимова, Варвара Комарова, Елизавета Говорова, Иван Рысин, Кирилл Жиров

Описание: Когда генетическое разнообразие стало минимальным, а человечество оказалось на грани вымирания, стартовала программа «Наследие», призванная восполнить популяцию. Ее возглавили биоинженеры Александр и Елизавета Гордеевы и генетик Петр Сергеевич. Группа ученых провела в криогенном сне сто лет, чтобы в будущем разморозить здоровые эмбрионы. Однако ученые и представить не могли, каким окажется первое поколение новых людей и последняя надежда человечества.

Качество: WEBRip 720p
Формат: MKV

Видео: MPEG 4 AVC, ~ 3000 Кбит/с, 1280x720, 25 кадр/с
Аудио: 48.0 kHz, AC3 Dolby Digital, 2/0 (L,R) ch, ~ 192 kbps

Общее
Уникальный идентификатор : 186455908392641284821494522082445104096 (0x8C461A0ADAD43B5497AD5265EFEE13E0)
Полное имя : C:\films\Наследие.2022.WEBRip 720p.Files-x\01. Наследие.2022.WEBRip 720p.Files-x.mkv
Формат : Matroska
Версия формата : Version 2
Размер файла : 994 Мбайт
Продолжительность : 43 м. 35 с.
Общий поток : 3 186 Кбит/сек
Дата кодирования : UTC 2022-07-27 23:57:44
Программа кодирования : mkvmerge v7.8.0 ('River Man') 32bit built on Apr 3 2015 12:11:22
Библиотека кодирования : libebml v1.3.1 + libmatroska v1.4.2

Видео
Идентификатор : 1
Формат : AVC
Формат/Информация : Advanced Video Codec
Профиль формата : [email protected]
Настройки формата : CABAC / 9 Ref Frames
Параметр CABAC формата : Да
Параметр RefFrames формата : 9 кадров
Идентификатор кодека : V_MPEG4/ISO/AVC
Продолжительность : 43 м. 35 с.
Битрейт : 3 000 Кбит/сек
Ширина : 1 280 пикселей
Высота : 720 пикселей
Соотношение сторон : 16:9
Режим частоты кадров : Постоянный
Частота кадров : 24,000 кадра/сек
Цветовое пространство : YUV
Субдискретизация насыщенности : 4:2:0
Битовая глубина : 8 бит
Тип развёртки : Прогрессивная
Бит/(Пиксели*Кадры) : 0.136
Размер потока : 914 Мбайт (92%)
Библиотека кодирования : x264 core 146 r2538 121396c
Настройки программы : cabac=1 / ref=9 / deblock=1:-2:-1 / analyse=0x3:0x133 / me=umh / subme=9 / psy=1 / psy_rd=1.00:0.15 / mixed_ref=1 / me_range=32 / chroma_me=1 / trellis=2 / 8x8dct=1 / cqm=0 / deadzone=21,11 / fast_pskip=0 / chroma_qp_offset=-3 / threads=18 / lookahead_threads=3 / sliced_threads=0 / nr=0 / decimate=1 / interlaced=0 / bluray_compat=0 / constrained_intra=0 / bframes=9 / b_pyramid=2 / b_adapt=2 / b_bias=0 / direct=1 / weightb=1 / open_gop=0 / weightp=2 / keyint=250 / keyint_min=23 / scenecut=40 / intra_refresh=0 / rc=2pass / mbtree=0 / bitrate=3000 / ratetol=1.0 / qcomp=0.60 / qpmin=0 / qpmax=69 / qpstep=4 / cplxblur=20.0 / qblur=0.5 / ip_ratio=1.40 / pb_ratio=1.30 / aq=2:1.00
Default : Да
Forced : Нет
Цветовой диапазон : Limited
Основные цвета : BT.709
Характеристики трансфера : BT.709
Коэффициенты матрицы : BT.709

Аудио
Идентификатор : 2
Формат : AC-3
Формат/Информация : Audio Coding 3
Коммерческое название : Dolby Digital
Идентификатор кодека : A_AC3
Продолжительность : 43 м. 35 с.
Вид битрейта : Постоянный
Битрейт : 192 Кбит/сек
Каналы : 2 канала
Channel layout : L R
Частота : 48,0 КГц
Частота кадров : 31,250 кадров/сек (1536 SPF)
Метод сжатия : С потерями
Размер потока : 59,9 Мбайт (6%)
Service kind : Complete Main
Default : Да
Forced : Нет

Когда раздача ведётся путём добавления новых серий, при каждом добавлении создётся новый торрент. Чтобы начать докачку новой серии, пользователям необходимо сделать следующее:
(1) остановить скачивание,
(2) удалить старый торрент у себя из клиента (старые серии удалять не надо),
(3) скачать новый торрент и запустить его у себя в клиенте вместо старого, при этом указать клиенту путь в старую папку, куда и должно происходить скачивание новых серий.
Ваш клиент при этом должен произвести хеширование (проверку) старой папки (если не производит сам - помогите ему сделать это), и будет докачивать только те серии, которых у вас ещё нет. Старые серии при этом не удаляются, а продолжают раздаваться!
Eсли вы уже удалили старые серии, то предотвратить повторную закачку старых серий можно, отжав галочку в соответсвующих местах при запуске нового торрента. По возможности, желательно не удалять старые серии как можно дольше, чтобы релизёр не столько продолжал раздавать старые серии, а смог сконцентрироваться на новых.

7xi.vidak.icu



Скачать Наследие через торрент https://i120.fastpic.org/big/2022/0727/4c/9e05a48ee59efd623a48543efc1f6f4c.jpg Скачать, смотреть онлайн Наследие бесплантно в хорошем качестве Описание: Когда генетическое разнообразие стало минимальным, а человечество оказалось на грани вымирания, стартовала программа «Наследие», ... 10 10 4
Торрент: Зарегистрирован [2022-08-16 16:17] · скачан: 2 раз
Статус: √ проверено
Размер: 6.25 GB
Как cкачать? Как скачать Наследие через торрент | UTorrent



Последний раз редактировалось: bober100 (2022-08-16 16:16), всего редактировалось 2 раз(а)

28-11-2019 20:33  

Отключить вcю реклaмy на сайте

30-07-2022 16:56 Наследие Скачать торрент  

даже декорации не нужны , заброжки по всей россии7xi.vidak.icu



    Дорогой пользователь! Огромная просьба, поблагодарите релизера, оцените раздачу и оставьте свои комментарий, если Вы скачали Наследие через торрент бесплатно!
    Комментировать посты могут только пользователи прошедшие не сложную регистрацию
    Показать сообщения:    

    Наследие через торрент
    Скачать бесплатно Наследие
    Наследие скачать торрент
    Наследие смотреть онлайн
    Cкачать фильм Наследие бесплатно
    Наследие скачать торрент в хорошем качестве
    Наследие смотреть онлайн бесплатно в хорошем качестве


    Вы не можете начинать темы
    Вы не можете отвечать на сообщения
    Вы не можете редактировать свои сообщения
    Вы не можете удалять свои сообщения
    Вы не можете голосовать в опросах
    Вы не можете прикреплять файлы к сообщениям
    Вы можете скачивать файлы